#TITLE:Fever;
#SUBTITLE:Dr.Mario;
#ARTIST:Nintendo;
#TITLETRANSLIT:;
#SUBTITLETRANSLIT:;
#ARTISTTRANSLIT:;
#CREDIT:;
#BANNER:Fever.jpg;
#BACKGROUND:Fever-bg.jpg;
#LYRICSPATH:;
#CDTITLE:!macTitle.png;
#MUSIC:Fever.mp3;
#OFFSET:-0.050;
#SAMPLESTART:40.965;
#SAMPLELENGTH:12.000;
#SELECTABLE:YES;
#BPMS:0.000=150.280;
#STOPS:30.500=0.600
,57.000=0.200
,60.500=0.200
,104.000=0.200
,107.500=0.200
,149.500=1.200
,150.500=1.200
,151.500=0.700
,151.750=0.500
;
#BGCHANGES:;
// cache tags:
#FIRSTBEAT:0.500;
#LASTBEAT:163.500;
#SONGFILENAME:Songs/Music V.I.P ^_^/Fever (MacGravel)/Fever.sm;
#HASMUSIC:1;
#HASBANNER:1;
#MUSICLENGTH:72.889;
// end cache tags

//---------------dance-single - ----------------
#NOTES:
     dance-single:
     :
     Hard:
     10:
     1.000,1.000,0.686,0.384,0.851,435.000,50.000,28.000,0.000,0.000:

0000
1001
1001
0001
0010
0100
1000
0100
,
0010
0101
0101
1000
0010
0100
0010
1000
,
0100
0000
0010
0001
0010
0000
0001
1000
0001
0000
1000
0010
1000
0000
0010
0100
,
0010
0000
0000
0000
0000
0000
0100
0000
0000
0001
0000
0000
0100
0000
0000
0000
0000
0000
0001
0000
0000
1000
0000
0000
0001
0000
0000
0000
0000
0000
1000
0000
0000
0000
0000
0000
0000
0000
0000
0000
0000
0000
1000
0000
0100
0000
0010
0000
,
0001
0000
0001
1000
0001
0000
1000
0010
1000
0000
0100
0010
0100
0000
0010
0001
,
0010
0000
0001
0001
0001
0000
0010
0010
0010
0000
0100
0100
0100
0000
1000
1000
,
1000
0000
0010
1000
0010
0000
1000
0100
1000
0000
0001
0010
0001
0000
0100
0010
,
0100
0000
0001
0010
0001
0000
0010
0100
0010
0000
0100
0000
1000
0001
1000
0000
,
0100
0010
0100
0000
0010
0001
0010
0000
0001
0100
0001
0000
1000
0100
0010
0001
,
0000
0000
0100
0000
0001
0000
0000
0000
1000
0000
0010
0000
0000
0000
1000
0000
0001
1000
0001
1000
0001
1000
0000
0000
1000
0000
0100
0000
1000
0000
0000
0000
,
0010
0000
1000
0000
0100
0010
0001
0000
0100
0000
0010
0000
0100
0000
0001
0000
,
0010
0000
0100
0000
0010
0001
1000
0000
0100
0000
1000
0000
0010
0000
0100
0000
,
0010
0000
1000
0000
0010
0100
0010
0000
1000
0000
0001
0000
1000
0000
0100
0000
,
0010
0000
0001
0000
0100
0010
0100
0000
0001
0000
1000
0000
0100
0010
0100
0000
,
0010
0000
0001
0000
1000
0000
2002
0000
3003
0000
0001
0100
0001
0000
0100
0000
,
0010
0000
1000
0000
0220
0330
0000
0000
0001
0010
0001
0000
0010
0000
0100
0000
,
1000
0000
0010
0000
1000
0000
0100
0000
0010
0010
0010
0000
0001
0001
0001
0000
,
1000
0000
0001
0010
0022
0033
0000
0000
0020
0130
1000
0001
1000
0010
0100
0001
,
0020
0130
1000
0001
0200
0310
1000
0100
0020
0031
0100
0010
1000
0100
0010
0001
,
0100
0010
1000
0001
0100
0001
1000
0010
2000
3001
0100
0001
0100
0010
1000
0100
,
2000
3001
0010
0001
2000
3100
1000
0001
0020
0130
0010
0001
0100
0010
0100
0001
,
1000
0100
0010
0001
1000
0100
1000
0001
0020
0130
0010
0001
0100
0010
0100
0001
,
2000
3100
0010
0100
2000
3010
0100
0010
2000
3001
1000
0100
0010
0100
1000
0001
,
1000
0001
0100
0010
0100
0001
0010
0100
2000
3010
1000
0001
0100
0010
1000
0100
,
0020
0031
0010
0100
2000
3001
0100
0010
2000
3100
0010
0100
1000
0001
0010
0100
,
0010
0001
1000
0001
1000
0001
0100
0010
0100
0001
0100
0000
0010
0000
1000
0000
,
0001
0000
0022
0000
0033
0000
0001
1000
0001
0000
1000
0000
0010
0000
1000
0000
,
2020
3030
0000
0000
0001
1000
0001
0000
0100
0000
0010
0000
1000
0000
0100
0000
,
0010
0000
0001
0000
1000
1000
1000
0000
0001
0001
0001
0000
0100
0000
0010
0100
,
2002
3003
0000
0000
0011
0000
0011
0000
0100
0000
0010
0000
0001
0000
1000
0000
,
0010
1000
1100
0010
0101
0110
0001
0010
,
0100
0010
0011
0011
0001
1000
0010
1000
,
0001
1000
0110
0010
1010
0110
0001
1000
,
0100
0100
1010
0010
0101
0101
1010
1010
,
0101
1000
1010
0010
0011
1100
0011
0100
,
1001
0010
0110
0010
0110
1001
0110
1100
,
0101
1000
0110
0100
0011
0011
0110
0100
,
1100
1000
1010
1010
1001
1001
0101
0101
,
1001
0000
0000
1001
,
0001
1000
0001
0000
0100
0010
0100
0000
0001
0010
0001
0000
0010
0100
0010
0000
,
0100
0000
0000
1000
0000
0000
0100
0000
0000
0000
0000
0000
1000
0000
0000
0010
0000
0000
1000
0000
0000
0000
0000
0000
0100
0000
0000
0000
0000
0000
0000
0000
0000
0000
0000
0000
0001
0000
0010
0000
0100
0000
1000
0000
0000
0000
0000
0000
;
